Skip to main content

Max Creek Live at Webster Theatre on 2001-12-31

Audio Preview

etree
Max Creek Live at Webster Theatre on 2001-12-31




Max Creek
12/31/2001
The Webster Theatre
Hartford, Connecticut

New Year's Eve Party

SBD/AUD MTX

-SET 1-
d1t01 - Secrets@@ >
d1t02 - All Along The Watchtower >
d1t03 - Blood Red Roses
d1t04 - tuning
d1t05 - Let It Rock
d1t06 - Sitting In Limbo
d1t07 - L.F.S.
d2t01 - Cocaine Lady >
d2t02 - After Midnight >
d2t03 - Space >
d2t04 - New Year's countdown
d2t05 - Auld Lang Syne
d2t06 - My Back Pages
d2t07 - High On A Mountain

-SET 2-
d3t01 - Old Stones, Broken Bones >
d3t02 - You're The Only One
d3t03 - tuning/banter
d3t04 - Who'll Stop The Rain
d3t05 - Ramblin' Gamblin' Man
d4t01 - Not Fade Away (intro) >
d4t02 - In Harmony >
d4t03 - Fire & Brimstone >
d4t04 - Jessica/Lovelight jam >
d4t05 - Not Fade Away (close)
-ENCORE-
d4t06 - Will The Circle Be Unbroken
d4t07 - Just A Rose%


notes :

the first track is just SBD. it has fluctuating levels. i did what i could to even it out.
the rest of the show was cloned from DAT (SBD/AUD MTX) which was missing the first track.

@@-messy levels/bad cable
% - addtl vocals:Eamon Cronin

source1 : SBD>DAT(Sony D8)
source2 : SBD/AUD(Beyers 201s)>mixer>DAT>CLONE
transfer : DAT (Sony PCM-R300)>PC(UA1D@44.1kHz)>Soundforge9.0c>WAV>FLAC(TLH)

recording & transfer : fryinbri11@yahoo.com
thanks to SK & Taperjones


Collection MaxCreek
Band/Artist Max Creek
Venue Webster Theatre
Location Hartford, CT

Source SBD/AUD MTX>DAT(Sony D8)
Lineage DAT (Sony PCM-R300)>PC(UA1D@44.1kHz)>Soundforge9.0c>WAV>FLAC(TLH)
Taped by fryinbri, SK, Taperjones
Transferred by fryinbri

Notes

FFP:
mc2001-12-31d1t01.flac:623c6b88501182f0926a97cba318698c
mc2001-12-31d1t02.flac:d0af7139ea82b0045744ca7b49f238f2
mc2001-12-31d1t03.flac:51a9f7901c1b15903da81a2dc624bfab
mc2001-12-31d1t04.flac:51d137c1298a2ecc8be353aeebc62c44
mc2001-12-31d1t05.flac:8b276c1ab0bfe0ba01d772fc6f43b50b
mc2001-12-31d1t06.flac:1fda66721b4504c90e6519bb2567b997
mc2001-12-31d1t07.flac:9cd6ebe2eefea93c90c63c7bbe52962b
mc2001-12-31d2t01.flac:7994cf21b3e478318195ad9404b8f2f7
mc2001-12-31d2t02.flac:a45c41c4bc6d04ee4fcbbaec7c8cd773
mc2001-12-31d2t03.flac:abd9bd40695cbf8542caa6636b7a8467
mc2001-12-31d2t04.flac:0e7101f7e6b157a5d34e0adeb2ec99dd
mc2001-12-31d2t05.flac:b3e51814da26decb809a9602302b33f2
mc2001-12-31d2t06.flac:bf3440fda925eb617b0f1d6f69997a61
mc2001-12-31d2t07.flac:fe3833a14167a05580662db6bab05b46
mc2001-12-31d3t01.flac:2441f610b16401f6e389763fc4f02552
mc2001-12-31d3t02.flac:889b3e8835c45b902fa6753f911f5c4a
mc2001-12-31d3t03.flac:a16c0404e08addf1b25fd9d28855614a
mc2001-12-31d3t04.flac:3631a3ea29ac5a381d265747244cad34
mc2001-12-31d3t05.flac:3b93614a7532a0a453cc425951981824
mc2001-12-31d4t01.flac:d64489165ba9edb785fc45351c9c4431
mc2001-12-31d4t02.flac:f50957356fb6f97733bc3484563bb20d
mc2001-12-31d4t03.flac:2e42e549f80be4cc303ef61be769a2c4
mc2001-12-31d4t04.flac:0f8d20b6df0de192c57eb38a772997a0
mc2001-12-31d4t05.flac:cc0f5cef78492ebedd641bfccded394d
mc2001-12-31d4t06.flac:ed3e9f2d4552fe9e0c5f901f4636750a
mc2001-12-31d4t07.flac:b8c30bbf6eb3568fbe89813a52ac750d


shntool:
length expanded size cdr WAVE problems fmt ratio filename
15:27.64 163673372 B --- -- ---xx flac 0.4584 mc2001-12-31d1t01.flac
10:30.15 111167324 B --- -- ---xx flac 0.4650 mc2001-12-31d1t02.flac
7:46.54 82329452 B --- -- ---xx flac 0.4662 mc2001-12-31d1t03.flac
2:45.58 29242460 B --- -- ---xx flac 0.3621 mc2001-12-31d1t04.flac
6:52.03 72683900 B --- -- ---xx flac 0.4863 mc2001-12-31d1t05.flac
10:02.50 106310444 B --- -- ---xx flac 0.4234 mc2001-12-31d1t06.flac
6:37.55 70160204 B --- -- ---xx flac 0.4621 mc2001-12-31d1t07.flac
13:05.02 138478748 B --- -- ---xx flac 0.4573 mc2001-12-31d2t01.flac
13:02.71 138111836 B --- -- ---xx flac 0.4619 mc2001-12-31d2t02.flac
5:06.27 54041948 B --- -- ---xx flac 0.4223 mc2001-12-31d2t03.flac
3:13.13 34075820 B --- -- ---xx flac 0.3842 mc2001-12-31d2t04.flac
3:30.35 37126364 B --- -- ---xx flac 0.3641 mc2001-12-31d2t05.flac
5:02.03 53279900 B --- -- ---xx flac 0.4701 mc2001-12-31d2t06.flac
6:12.06 65634956 B --- -- ---xx flac 0.4817 mc2001-12-31d2t07.flac
22:20.29 236444252 B --- -- ---xx flac 0.4313 mc2001-12-31d3t01.flac
8:24.15 88940924 B --- -- ---xx flac 0.4535 mc2001-12-31d3t02.flac
4:37.07 48879308 B --- -- ---xx flac 0.3515 mc2001-12-31d3t03.flac
5:56.61 62941916 B --- -- ---xx flac 0.4788 mc2001-12-31d3t04.flac
9:21.57 99094508 B --- -- ---xx flac 0.4129 mc2001-12-31d3t05.flac
14:26.30 152833004 B --- -- ---xx flac 0.4507 mc2001-12-31d4t01.flac
14:20.09 151725212 B --- -- ---xx flac 0.4339 mc2001-12-31d4t02.flac
11:38.14 123160172 B --- -- ---xx flac 0.4490 mc2001-12-31d4t03.flac
2:32.56 26944556 B --- -- ---xx flac 0.4577 mc2001-12-31d4t04.flac
3:48.45 40325084 B --- -- ---xx flac 0.4390 mc2001-12-31d4t05.flac
13:11.05 139544204 B --- -- ---xx flac 0.4429 mc2001-12-31d4t06.flac
13:31.18 143102780 B --- -- ---xx flac 0.4973 mc2001-12-31d4t07.flac
233:23.52 2470252648 B 0.4474 (26 files)

No errors occured.

comment
Reviews

There are no reviews yet. Be the first one to write a review.
DOWNLOAD OPTIONS
In Collection
Max Creek
In Collection
Live Music Archive
Uploaded by
fryinbri
on 12/28/2009
Views
563
Favorites
1
SIMILAR ITEMS (based on metadata)
eye
Title
Date Archived
Creator
Max Creek
by Max Creek
etree
eye 523
favorite 2
comment 0
Source: SBD>Cass Master(MarantzPMD-430)
Max Creek
by Max Creek
etree
eye 442
favorite 1
comment 0
Source: SBD>DAT(SonyTCD-8)
Max Creek
by Max Creek
etree
eye 497
favorite 0
comment 0
Source: SBD > DAT
Max Creek
etree
eye 776
favorite 1
comment 0
Source: SBD>DAT(SonyTCD-8)
Max Creek
by Max Creek
etree
eye 268
favorite 0
comment 0
Source: SBD > Casio DA-R100 @44.1
Max Creek
by Max Creek
etree
eye 701
favorite 1
comment 3
favoritefavoritefavoritefavoritefavorite ( 3 reviews )
Source: Schoeps cmc5/mk41 > Apogee Mini-me > DA-P1@44.1kHz
Max Creek
by Max Creek
etree
eye 807
favorite 2
comment 0
Source: SBD>Analog Master(MarantzPMD-430)
Max Creek
by Max Creek
etree
eye 256
favorite 1
comment 0
Source: SBD > audio cassettes
Max Creek
by Max Creek
etree
eye 290
favorite 0
comment 0
Source: Aud > audio cassettes
Max Creek
by Max Creek
etree
eye 713
favorite 1
comment 0
Source: SBD>DAT(SonyTCD-8)